Tell us your Crash

OPlayer plays almost any file formats in your iDevice, no need to spend several hours to convert your videos.

Re: Tell us your Crash

Postby mq-zhu@live.cn » Thu Apr 07, 2016 10:16 am

Fruits wrote:Using Ipad Pro 9.7" / Ipad Air / iphone 6 plus (ios9.3). Using latest version of oPlayer.

I get blank screen when playing videos from documents but the same video is ok if i stream from via samba.

But if i change the display to landscape mode, the playback is ok (i.e. tilt the ipad from portrait to landscape).


I tested on iPhone 6 plus(ios9.3), but didn't find the issue
mq-zhu@live.cn
Developer
Developer
 
Posts: 57
Joined: Wed Nov 03, 2010 2:35 am

Re: Tell us your Crash

Postby ringhachua » Fri Apr 29, 2016 1:10 pm

I have the 9.7" Ipad Pro.

No sound from AVI files when streamed from network attached drive. The problem is temporarily solved when I reset the iPad. It will work for 1-2 AVI files and stop working (ie no sound) on the next AVI file. I have to reset the iPad to get it to work again.

The AVI files are confirmed to be working on my MacBook.
ringhachua
Beignner
Beignner
 
Posts: 1
Joined: Fri Apr 29, 2016 1:03 pm

Re: Tell us your Crash

Postby MusicMagic » Fri Oct 06, 2017 1:16 am

This video makes OPlayer crash on iphone.
I tried a lot of Settings, but still crash.

General
Unique ID : 182981972372899356969741018448339200159 (0x89A90BC5D7E813B8B9321CA2FC48E89F)
Complete name : C:\[KissSub&FZSD&LoliHouse] Kono Subarashii Sekai ni Shukufuku wo! S2 - 01 [WebRip 1920x1080 HEVC-yuv420p10 AAC].mkv
Format : Matroska
Format version : Version 4 / Version 2
File size : 352 MiB
Duration : 23 min 40 s
Overall bit rate : 2 080 kb/s
Encoded date : UTC 2017-01-12 06:09:07
Writing application : mkvmerge v9.5.0 ('Quiet Fire') 64bit
Writing library : libebml v1.3.4 + libmatroska v1.4.5

Video
ID : 1
Format : HEVC
Format/Info : High Efficiency Video Coding
Format profile : Main 10@L4@Main
Codec ID : V_MPEGH/ISO/HEVC
Duration : 23 min 40 s
Bit rate : 1 950 kb/s
Width : 1 920 pixels
Height : 1 080 pixels
Display aspect ratio : 16:9
Frame rate mode : Constant
Frame rate : 23.976 (24000/1001) FPS
Color space : YUV
Chroma subsampling : 4:2:0
Bit depth : 10 bits
Bits/(Pixel*Frame) : 0.039
Stream size : 330 MiB (94%)
Writing library : x265 2.0+2-ge16e208+14:[Windows][GCC 5.3.0][64 bit] Asuna 10bit
Encoding settings : wpp / ctu=32 / min-cu-size=8 / max-tu-size=32 / tu-intra-depth=2 / tu-inter-depth=2 / me=3 / subme=4 / merange=44 / no-rect / no-amp / max-merge=3 / temporal-mvp / no-early-skip / rskip / rdpenalty=1 / no-tskip / no-tskip-fast / no-strong-intra-smoothing / no-lossless / no-cu-lossless / no-constrained-intra / no-fast-intra / no-open-gop / no-temporal-layers / interlace=0 / keyint=360 / min-keyint=1 / scenecut=40 / rc-lookahead=80 / lookahead-slices=4 / bframes=6 / bframe-bias=0 / b-adapt=2 / ref=4 / limit-refs=2 / limit-modes / weightp / weightb / aq-mode=3 / qg-size=32 / aq-strength=0.70 / cbqpoffs=-1 / crqpoffs=-1 / rd=4 / psy-rd=1.00 / rdoq-level=2 / psy-rdoq=2.00 / no-rd-refine / signhide / deblock=-1:-1 / no-sao / no-sao-non-deblock / b-pyramid / cutree / no-intra-refresh / rc=crf / crf=18.0000 / qcomp=0.65 / qpmin=0 / qpmax=51 / qpstep=4 / ipratio=1.40 / pbratio=1.20
Default : Yes
Forced : No

Audio
ID : 2
Format : AAC
Format/Info : Advanced Audio Codec
Format profile : LC
Codec ID : A_AAC
Duration : 23 min 40 s
Bit rate : 128 kb/s
Channel(s) : 2 channels
Channel positions : Front: L R
Sampling rate : 44.1 kHz
Frame rate : 43.066 FPS (1024 SPF)
Compression mode : Lossy
Stream size : 21.7 MiB (6%)
Default : Yes
Forced : No
MusicMagic
Beignner
Beignner
 
Posts: 4
Joined: Fri Oct 06, 2017 1:04 am

Previous

Return to OPlayer Problems and Solutions [iPhone/iPad]

Who is online

Users browsing this forum: No registered users and 9 guests